<?xml version="1.0" standalone="no"?>
<!DOCTYPE svg PUBLIC "-//W3C//DTD SVG 1.1//EN" "http://www.w3.org/Graphics/SVG/1.1/DTD/svg11.dtd">
<svg xmlns="http://www.w3.org/2000/svg">
<metadata>Copyright (C) 2017 by original authors @ fontello.com</metadata>
<defs>
<font id="icon" horiz-adv-x="1000" >
<font-face font-family="icon" font-weight="400" font-stretch="normal" units-per-em="1000" ascent="850" descent="-150" />
<missing-glyph horiz-adv-x="1000" />
<glyph glyph-name="right-open-big" unicode="&#xe800;" d="M13-20l358 370-358 372q-26 26 0 48 26 26 48 0l392-394q24-26 0-50l-392-394q-22-26-48 0-26 22 0 48z" horiz-adv-x="465" />

<glyph glyph-name="left-open-big" unicode="&#xe801;" d="M452-20q26-26 0-48-26-26-48 0l-392 394q-24 24 0 50l392 394q22 26 48 0 26-22 0-48l-358-372z" horiz-adv-x="465" />

<glyph glyph-name="facebook" unicode="&#xe802;" d="M535 843v-147h-87q-48 0-65-20t-17-60v-106h164l-22-165h-142v-424h-171v424h-142v165h142v122q0 104 58 161t155 57q82 0 127-7z" horiz-adv-x="571.4" />

<glyph glyph-name="wechat" unicode="&#xe803;" d="M324 593q0 23-14 37t-37 14q-24 0-42-15t-19-36q0-22 19-36t42-14q23 0 37 13t14 37z m414-283q0 15-14 28t-36 12q-16 0-28-13t-13-27q0-16 13-28t28-13q22 0 36 12t14 29z m-131 283q0 23-14 37t-37 14q-24 0-42-15t-18-36q0-22 18-36t42-14q23 0 37 13t14 37z m354-283q0 15-15 28t-36 12q-15 0-27-13t-13-27q0-16 13-28t27-13q22 0 36 12t15 29z m-148 221q-18 3-40 3-94 0-173-43t-125-117-45-160q0-44 13-85-20-2-38-2-15 0-28 1t-31 4-25 4-30 6-28 5l-141-70 40 121q-162 114-162 274 0 94 54 173t148 125 203 45q98 0 185-36t146-102 77-146z m330-313q0-65-38-124t-104-108l31-101-111 60q-84-20-122-20-94 0-173 39t-125 107-46 147 46 148 125 107 173 39q90 0 169-39t127-108 48-147z" horiz-adv-x="1142.9" />

<glyph glyph-name="down-open-big" unicode="&#xe804;" d="M63 570l370-356 372 356q22 26 48 0 26-22 0-48l-396-392q-22-22-48 0l-396 392q-26 26 0 48 24 24 50 0z" horiz-adv-x="866" />

<glyph glyph-name="up-open-big" unicode="&#xe805;" d="M804 130l-372 358-370-358q-26-22-50 0-24 24 0 50l396 390q26 26 48 0l396-390q24-26 0-50-26-22-48 0z" horiz-adv-x="864" />

<glyph glyph-name="line" unicode="&#xe806;" d="M1033 423c0 227-228 412-508 412-280 0-508-185-508-412 0-204 181-374 425-407 17-3 39-11 45-25 5-13 3-33 2-46 0 0-6-36-8-43-2-13-10-51 44-28 55 23 293 173 399 295h0c74 81 109 163 109 254z m-687-121c0-6-4-10-10-10h-142 0c-3 0-5 1-7 2 0 1 0 1 0 1 0 0 0 0 0 0-2 2-3 4-3 7v0 221c0 5 4 10 10 10h36c5 0 9-5 9-10v-176h97c6 0 10-4 10-10v-35z m86 0c0-6-4-10-10-10h-36c-5 0-9 4-9 10v221c0 5 4 10 9 10h36c6 0 10-5 10-10v-221z m245 0c0-6-4-10-10-10h-35c-1 0-2 0-3 0 0 0 0 0 0 0 0 0 0 0-1 0 0 0 0 0 0 0 0 0 0 1 0 1-1 0-1 0-1 0 0 0 0 0 0 0 0 0-1 0-1 0 0 0 0 0 0 0-1 1-2 2-2 3l-102 137v-131c0-6-4-10-10-10h-35c-6 0-10 4-10 10v221c0 5 4 10 10 10h35c0 0 0 0 1 0 0 0 0 0 0 0 0 0 0 0 1 0 0 0 0 0 0 0 0 0 0 0 1 0 0-1 0-1 0-1 0 0 0 0 0 0 1 0 1 0 1 0 0 0 0 0 0 0 0 0 1 0 1 0 0 0 0 0 0-1 0 0 0 0 1 0 0 0 0 0 0 0 0 0 0 0 0 0 0 0 1-1 1-1 0 0 0 0 0 0 0 0 0 0 1-1l0 0c0 0 0 0 0-1l102-137v132c0 5 4 10 10 10h35c6 0 10-5 10-10v-221z m197 185c0-5-4-10-10-10h-97v-37h97c6 0 10-4 10-10v-36c0-5-4-9-10-9h-97v-38h97c6 0 10-4 10-10v-35c0-6-4-10-10-10h-142l0 0c-3 0-5 1-7 2 0 0 0 1 0 1s0 0 0 0c-2 2-3 4-3 7l0 0v221 0c0 3 1 5 3 7 0 0 0 0 0 0 0 0 0 0 0 0 2 2 4 3 7 3l0 0h142c6 0 10-5 10-10v-36z" horiz-adv-x="1052" />

<glyph glyph-name="check" unicode="&#xe807;" d="M249 0q-34 0-56 28l-180 236q-16 24-12 52t26 46 51 14 47-28l118-154 296 474q16 24 43 30t53-8q24-16 30-43t-8-53l-350-560q-20-32-56-32z" horiz-adv-x="667" />

<glyph glyph-name="cancel" unicode="&#xe808;" d="M452 194q18-18 18-43t-18-43q-18-16-43-16t-43 16l-132 152-132-152q-18-16-43-16t-43 16q-16 18-16 43t16 43l138 156-138 158q-16 18-16 43t16 43q18 16 43 16t43-16l132-152 132 152q18 16 43 16t43-16q18-18 18-43t-18-43l-138-158z" horiz-adv-x="470" />

<glyph glyph-name="menu" unicode="&#xe809;" d="M650 400q22 0 36-15t14-35-15-35-35-15l-600 0q-20 0-35 15t-15 35 14 35 36 15l600 0z m-600 100q-20 0-35 15t-15 35 14 35 36 15l600 0q22 0 36-15t14-35-15-35-35-15l-600 0z m600-300q22 0 36-15t14-35-15-35-35-15l-600 0q-20 0-35 15t-15 35 14 35 36 15l600 0z" horiz-adv-x="700" />

<glyph glyph-name="tumbler" unicode="&#xe80a;" d="M413 49l0 108q-52-35-102-35-21 0-45 11t-27 30q-10 17-10 76l0 171 156 0 0 104-156 0 0 175-93 0q-12-65-23-91t-45-54q-34-29-68-39l0-95 73 0 0-236q0-75 46-116 19-19 59-35 47-11 81-11 85 0 154 37z" horiz-adv-x="413" />

<glyph glyph-name="line-at" unicode="&#xe80b;" d="M501-144c-273 0-494 221-494 494l0 0c0 273 221 494 494 494l0 0c273 0 494-221 494-494l0 0v-68c0-103-83-187-186-187l0 0c-103 0-187 84-187 187l0 0v68c0 67-54 121-121 121l0 0c-66 0-120-54-121-121l0 0c1-67 55-121 121-121l0 0c9 0 17 1 25 3l0 0c36 7 71-16 79-53l0 0c7-36-16-71-52-79l0 0c-17-3-34-5-52-5l0 0c-141 0-255 114-255 255l0 0c0 141 114 255 255 255l0 0c141 0 255-114 255-255l0 0v-68c0-29 24-53 53-53l0 0c29 0 52 24 52 53l0 0v68c0 199-161 360-360 360l0 0c-199 0-359-161-360-360l0 0c1-199 161-360 360-360l0 0c49 0 96 10 138 27l0 0v0c34 14 74-2 88-36l0 0c14-34-2-74-36-88l0 0c-59-24-123-37-190-37l0 0c0 0 0 0 0 0l0 0z" horiz-adv-x="1001" />

<glyph glyph-name="arrow" unicode="&#xe80c;" d="M726 292c-4-91-63-178-152-246-119-93-264-128-401-183-17-7-41-9-58-3-36 13-93 3-105 41-14 43 36 67 68 88 102 69 208 132 312 199 169 108 175 196 18 321-73 58-138 120-183 202-19 35-41 73-5 109 29 29 66 23 101 13 161-45 402-353 405-541z" horiz-adv-x="733" />

<glyph glyph-name="search" unicode="&#xe80d;" d="M710 223l278-277-84-84-277 277v45l-16 16c-66-58-145-87-236-87-101 0-187 35-257 105-71 70-106 155-106 256s35 187 106 258c70 71 156 106 257 106 102 0 187-35 257-106s104-157 104-258c0-90-28-169-86-235l16-16h44z m-335 0c70 0 129 25 178 73s74 109 74 178-25 129-74 178-108 73-178 73-129-24-177-73-74-108-74-178 25-129 74-178 108-73 177-73z" horiz-adv-x="999" />

<glyph glyph-name="down-open-mini" unicode="&#xe80e;" d="M405 470q22 26 48 0 26-22 0-48l-196-192q-22-22-48 0l-196 192q-26 26 0 48 24 24 50 0l170-156z" horiz-adv-x="466" />

<glyph glyph-name="left-open-mini" unicode="&#xe80f;" d="M252 180q26-26 0-48-26-26-48 0l-192 194q-24 24 0 50l192 194q22 26 48 0 26-22 0-48l-156-172z" horiz-adv-x="265" />

<glyph glyph-name="right-open-mini" unicode="&#xe810;" d="M13 180l158 170-158 172q-26 26 0 48 26 26 48 0l192-194q24-26 0-50l-192-194q-22-26-48 0-26 22 0 48z" horiz-adv-x="265" />

<glyph glyph-name="up-open-mini" unicode="&#xe811;" d="M62 230q-26-22-50 0-24 24 0 50l196 190q26 26 48 0l196-190q24-26 0-50-24-22-50 0l-170 158z" horiz-adv-x="464" />

<glyph glyph-name="phone" unicode="&#xe812;" d="M975-9c0-25-11-73-21-96-15-34-54-56-85-73-41-23-82-36-129-36-64 0-122 27-181 48-42 15-83 34-121 58-118 72-260 214-333 332-23 38-42 79-57 121-22 59-48 117-48 182 0 46 13 88 35 128 18 32 40 70 74 85 23 10 71 21 96 21 5 0 10 0 15-2 14-5 29-38 36-52 22-40 44-80 67-119 11-18 32-40 32-61 0-43-126-104-126-142 0-18 18-43 27-59 70-126 157-213 284-283 16-10 40-27 59-27 37 0 99 125 141 125 22 0 44-21 62-32 39-23 79-44 118-66 14-7 48-23 53-37 2-5 2-10 2-15z" horiz-adv-x="1000" />

<glyph glyph-name="mobile" unicode="&#xe813;" d="M238-31c27 0 47 23 47 48 0 27-20 47-47 47s-48-20-48-47c0-25 20-48 48-48z m-154 794l307 0c50 0 84-34 84-81l0-670c0-42-34-75-75-75l-325 0c-41 0-75 33-75 75l0 670c0 47 34 81 84 81z m91-54c-9 0-15-7-15-16s6-16 15-16l125 0c9 0 15 7 15 16s-6 16-15 16l-125 0z m255-607l0 496-385 0 0-496 385 0z" horiz-adv-x="475" />

<glyph glyph-name="location-1" unicode="&#xe814;" d="M432-145c-12 0-23 4-32 13l-268 264c-80 79-124 184-124 295 0 112 44 217 124 296 80 79 187 122 300 122 113 0 219-43 299-122 80-79 125-184 125-296-1-111-45-216-125-295l-268-264c-9-9-20-13-31-13z m0 901c-90 0-174-34-237-96-63-63-98-145-98-233 0-87 35-170 98-232l237-233 237 233c63 62 98 145 98 232 0 88-35 170-98 233-64 62-148 96-237 96z m0-498c-44 0-85 17-116 48-63 63-63 167 0 230 31 31 72 48 116 48s84-17 115-48c31-30 48-71 48-115s-17-84-48-115c-31-31-72-48-115-48z m0 237c-20 0-39-7-53-21-29-29-29-76 0-105 14-14 33-22 53-22 19 0 38 8 52 22 14 14 22 32 22 52 0 20-8 39-22 53-14 14-33 21-52 21z" horiz-adv-x="863" />

<glyph glyph-name="reply-1" unicode="&#xe815;" d="M900 10q-86 152-208 197t-330 45l0-218-362 334 362 322 0-192q90 0 168-27t131-70 96-95 69-104 44-95 24-69z" horiz-adv-x="900" />

<glyph glyph-name="youtube-horizontal" unicode="&#xe816;" d="M338 678c1 1 1 2 1 2l1 7-46 1c-41 0-53-1-54-2-1 0-15-54-40-151-12-47-22-84-23-83 0 2-14 55-32 118-17 64-31 116-32 117 0 0-55 1-100 0-6 0-10 13 58-202 9-30 23-72 31-94 9-25 15-44 19-60 8-31 8-50 7-73-2-25-2-209-1-212 2-2 88-3 96-1 1 0 2 2 3 9 2 6 2 29 2 128v125l5 18c4 11 13 41 20 66 8 25 17 55 21 67 32 106 63 209 64 215l0 5z m481-152l0-7h-1l0-181-1-175-14-15c-16-16-28-22-40-19-12 3-12-2-13 206l-1 191h-90v-7h-1v-207c0-222 0-222 11-244 9-18 22-27 45-29 29-4 61 9 90 38l13 12v-21c0-19 1-22 4-23 6-1 74-2 81 0l6 1v7l2 0v474l-91-1z m-332-390c-7-6-21-9-31-6-9 1-20 14-23 26-5 15-5 221-1 261 6 20 23 30 42 25 14-3 21-13 26-32 3-14 3-31 3-135-1-69-1-102-3-120-3-12-6-15-13-19z m103 296c-8 37-24 62-51 79-41 26-89 29-133 8-32-16-52-43-63-81-1-5-2-8-3-14-2-14-3-34-3-128-2-146 0-163 18-196 18-33 55-56 96-61 12-2 37 0 51 4 32 9 63 35 76 64 6 12 10 21 12 37 4 21 4 56 4 146 0 113 0 126-4 142z m1622-103h44l-1 39c-1 37-1 41-6 51-7 15-19 22-37 22-21 0-35-10-41-32-3-9-6-71-4-77 1-3 8-3 45-3z m-292 90c-5 12-16 17-29 17-10 0-20-5-31-13l-8-5v-285l8-6c18-13 37-16 51-7 5 4 8 8 11 16 3 10 4 23 3 143 0 124 0 132-5 140z m417-251c0-17-2-38-4-45-12-41-41-70-84-82-58-16-122 10-147 61-14 28-15 34-15 173 0 114 1 128 4 143 11 44 36 73 79 88 13 5 26 7 39 8 47 1 93-25 112-65 13-28 15-40 16-117l2-70-171-1-1-47c-1-66 3-86 21-98 15-10 38-9 51 1 12 11 15 22 16 54l1 29h83l-2-32z m-339-93c-7-16-23-31-36-35-33-10-60-2-91 27-10 9-19 17-21 17-1 0-2-7-2-21v-22h-80v629h80v-103c0-56 1-102 2-102s9 7 18 16c22 21 40 30 63 32 41 3 66-18 77-66 3-15 4-32 4-172 0-169 0-170-14-200z m-313 199v-233h-80v25c0 18-1 24-3 24-1 0-9-6-16-13-16-16-35-29-51-35-33-12-64-5-78 18-12 21-12 26-12 245v202h80l0-190c1-187 1-190 6-198 5-10 15-12 29-8 8 2 14 6 28 20l17 17v359h80v-233z m-311 311l-51-1-2-541-44-1c-34 0-44 0-45 2-1 2-1 124-2 272l0 268-99 1v85l293-1 1-84-51 0z m1088-38c-9 104-16 138-37 181-29 58-70 88-129 95-45 5-215 12-373 16-273 6-722-6-780-20-26-7-46-19-67-39-36-36-58-88-66-160-20-163-21-361-2-530 9-73 26-120 57-159 20-24 54-45 85-51 21-5 129-11 285-16 23-1 85-2 137-4 108-1 308 0 422 3 77 2 217 8 243 10 7 0 24 1 38 2 45 3 74 12 101 33 35 28 62 79 73 139 11 56 19 156 20 270 1 96 0 147-7 230z" horiz-adv-x="2479" />

<glyph glyph-name="fb" unicode="&#xe817;" d="M614 498h-72c-9 0-18-11-18-26v-52h90l-14-74h-76v-223h-86v223h-77v74h77v44c0 62 44 113 104 113h72v-79z m-114 332c-265 0-480-215-480-480 0-265 215-480 480-480 265 0 480 215 480 480 0 265-215 480-480 480z" horiz-adv-x="1000" />

<glyph glyph-name="youtube-s" unicode="&#xe818;" d="M500 155c-246 0-250 22-250 195s4 195 250 195 250-22 250-195-4-195-250-195z m0 675c-265 0-480-215-480-480 0-265 215-480 480-480 265 0 480 215 480 480 0 265-215 480-480 480z m80-472l-112 53c-10 4-18-1-18-12v-98c0-11 8-16 18-12l112 53c10 4 10 12 0 16z" horiz-adv-x="1000" />

<glyph glyph-name="news" unicode="&#xe819;" d="M1002 844h-862c-70 0-128-57-128-128v-826c0-14 8-26 21-31 4-2 8-3 13-3 8 0 17 4 23 10l220 220h713c70 0 127 57 127 127v503c0 71-57 128-127 128z m-304-630h-443c-19 0-35 16-35 36 0 19 16 35 35 35h443c19 0 35-16 35-35 0-20-16-36-35-36z m235 144h-678c-19 0-35 16-35 35 0 20 16 35 35 35h678c20 0 36-15 36-35 0-19-16-35-36-35z m-713 178c0 20 16 36 36 36h206c19 0 35-16 35-36s-16-35-35-35h-206c-20 0-36 16-36 35z m713-35h-324c-19 0-35 16-35 35s16 36 35 36h324c20 0 36-16 36-36s-16-35-36-35z m0 144h-678c-19 0-35 15-35 35 0 19 16 35 35 35h678c20 0 36-16 36-35 0-20-16-35-36-35z" horiz-adv-x="1142" />

<glyph glyph-name="introduce" unicode="&#xe81a;" d="M571 286c-34 0-61-28-61-62v-170c0-26 10-53 30-73 20-20 46-30 72-30h21v273c0 34-28 62-62 62z m328 556h-738c-84 0-152-68-152-152v-373c0-84 68-152 152-152h302v79c0 58 47 105 105 105 20 0 39-6 55-16v130c0 59 48 107 107 107 59 0 107-48 107-107v-136l204-67c7 18 11 37 11 57v373c0 84-68 152-153 152z m192-668c-8 12-20 19-32 24l-276 90v175c0 29-24 53-53 53-30 0-54-24-54-53v-287-31-224c0-16 6-33 19-45 12-12 28-18 44-18h301c16 0 32 6 45 18 12 12 18 29 18 45v215c0 13-4 27-12 38z" horiz-adv-x="1112" />

<glyph glyph-name="collections" unicode="&#xe81b;" d="M745 35l-87 67c-6 5-14 9-23 11l-63 13c-10 3-19 6-28 10-10 5-18 10-26 17l-163 135c-7 6-15 10-24 12-21 5-43-3-57-19-10-12-14-27-13-43 2-15 9-29 21-39l171-142c2-1 3-3 3-5s1-3 1-5l-3-12c-1-3-2-5-5-7-3-2-6-2-9-2l-198 43c-17 4-33 13-46 24-13 12-23 28-28 45l-47 150c-6 20-22 35-43 39-9 2-20 2-29-1-15-5-27-15-34-28-7-14-9-30-4-44l47-151c11-36 32-69 60-94 28-26 63-44 100-52l462-102c31-6 62 13 69 44l17 78c5 22-4 45-21 58z m-584 265l47-150c3-10 8-19 16-26 6-6 14-10 22-13-8 11-14 24-17 37l-37 158c-4 21-20 38-41 44-9 2-18 3-27 1 17-12 30-30 37-51z m-68 140l144-82c1 2 3 3 4 5 18 21 45 30 72 25 11-3 22-8 31-16l205-170c9-8 20-15 32-21 11-5 23-10 36-12l55-13c1 1 1 1 2 2l183 323c12 21 5 46-15 58l-524 297c-20 12-46 5-57-16l-184-323c-11-20-4-46 16-57z" horiz-adv-x="871" />

<glyph glyph-name="cards" unicode="&#xe81c;" d="M8-62c0-46 38-83 84-83h811c46 0 84 37 84 83v62h-979v-62z m895 560h-811c-46 0-84-38-84-84v-294h979v294c0 46-38 84-84 84z m-670-251h-104c-12 0-22 10-22 21s10 22 22 22h104c12 0 22-10 22-22s-10-21-22-21z m0 88h-104c-12 0-22 9-22 21s10 21 22 21h104c12 0 22-9 22-21s-10-21-22-21z m554-120c-55 0-100 44-100 100 0 55 45 100 100 100s100-45 100-100c0-56-45-100-100-100z m445 318l-751 306c-43 17-92-3-109-46l-91-223-5-12h627c80 0 144-65 144-144v-353-2-121c0-1 0-2 0-3 23 8 42 25 52 48l68 168 20 49 91 224c18 42-3 91-46 109z" horiz-adv-x="1292" />

<glyph glyph-name="bargain" unicode="&#xe81d;" d="M8-85c0-33 26-60 59-60h295v460h-354v-400z m550-60h295c32 0 59 27 59 60v400h-354v-460z m-550 696v-165h354v224h-295c-33 0-59-26-59-59z m845 59h-295v-224h354v165c0 33-27 59-59 59z m-584 235c-105 0-190-86-190-191h73c0 65 53 117 117 117 65 0 118-52 118-117h73c0 105-85 191-191 191z m381-74c65 0 117-52 117-117h74c0 105-86 191-191 191-105 0-190-86-190-191h73c0 65 52 117 117 117z" horiz-adv-x="919" />

<glyph glyph-name="googleplus" unicode="&#xe81e;" d="M802 341q0-117-49-207t-138-142-206-51q-83 0-159 32t-131 87-87 131-32 159 32 159 87 131 131 87 159 32q160 0 274-107l-111-107q-65 63-163 63-69 0-127-34t-92-94-34-130 34-130 92-94 127-34q46 0 85 13t64 32 44 43 27 47 12 41h-232v141h386q7-36 7-68z m484 68v-118h-117v-116h-117v116h-117v118h117v116h117v-116h117z" horiz-adv-x="1285.7" />

<glyph glyph-name="twitter" unicode="&#xe81f;" d="M904 622q-37-54-90-93 0-8 0-23 0-73-21-145t-64-139-103-117-144-82-181-30q-151 0-276 81 19-2 43-2 126 0 224 77-59 1-105 36t-64 89q19-3 34-3 24 0 48 6-63 13-104 62t-41 115v2q38-21 82-23-37 25-59 64t-22 86q0 49 25 91 68-83 164-133t208-55q-5 21-5 41 0 75 53 127t127 53q79 0 132-57 61 12 115 44-21-64-80-100 52 6 104 28z" horiz-adv-x="928.6" />

<glyph glyph-name="youtube" unicode="&#xe820;" d="M542 156v-118q0-37-22-37-13 0-25 12v168q12 12 25 12 22 0 22-37z m189-1v-25h-51v25q0 38 25 38t26-38z m-540 122h60v52h-174v-52h59v-318h55v318z m161-318h50v276h-50v-211q-17-23-32-23-10 0-11 11-1 2-1 20v203h-50v-218q0-28 5-41 7-21 32-21 27 0 57 34v-30z m240 83v110q0 41-5 55-10 31-40 31-28 0-52-30v121h-50v-370h50v27q25-31 52-31 30 0 40 31 5 15 5 56z m188 6v7h-51q0-29-1-34-4-20-22-20-26 0-26 38v49h100v57q0 44-15 65-22 28-59 28-38 0-60-28-15-21-15-65v-96q0-44 16-65 22-29 60-29 40 0 60 30 10 15 12 30 1 5 1 33z m-339 509v117q0 39-24 39t-24-39v-117q0-39 24-39t24 39z m401-419q0-131-14-195-8-33-33-56t-57-25q-102-12-309-12t-310 12q-32 3-57 25t-32 56q-15 62-15 195 0 131 15 195 7 33 32 56t57 26q103 11 310 11t309-11q33-4 58-26t32-56q14-62 14-195z m-557 712h57l-67-223v-151h-56v151q-8 42-34 119-21 57-37 104h60l39-147z m207-186v-97q0-46-16-66-21-29-59-29-37 0-59 29-15 21-15 66v97q0 45 15 66 22 28 59 28 38 0 59-28 16-21 16-66z m187 91v-279h-51v31q-30-35-58-35-25 0-33 21-4 13-4 42v220h51v-205q0-19 0-20 2-12 12-12 15 0 32 24v213h51z" horiz-adv-x="857.1" />

<glyph glyph-name="linkedin" unicode="&#xe821;" d="M195 501v-553h-184v553h184z m12 171q0-41-29-68t-75-27h-1q-46 0-74 27t-28 68q0 41 29 68t75 27 74-27 29-68z m650-407v-317h-183v296q0 59-23 92t-71 33q-35 0-58-19t-36-48q-6-17-6-45v-309h-184q1 223 1 361t0 165l-1 27h184v-80h-1q11 18 23 31t31 29 49 24 64 9q95 0 153-63t58-186z" horiz-adv-x="857.1" />

<glyph glyph-name="use" unicode="&#xe822;" d="M624 322c-93-93-103-239-26-344l-56-56c-15-15-15-40 0-56s40-15 55 0l57 57c104-78 250-68 343 26 103 103 103 270 0 373-103 103-270 103-373 0z m323-323c-75-75-198-75-273 0-75 75-75 198 0 273 75 75 198 75 273 0s75-198 0-273z m-622 529c60 0 108 48 108 107h-215c0-59 48-107 107-107z m429 0c60 0 108 48 108 107h-215c0-59 48-107 107-107z m215 0c59 0 107 48 107 107l-187 201c-3 3-6 5-10 7-4 1-7 2-11 2h-127l121-210c0-59 48-107 107-107z m-429 0c59 0 107 48 107 107l-35 210h-145l-34-210c0-59 48-107 107-107z m-322 107l120 210h-126c-4 0-8-1-11-2-4-2-7-4-10-7l-187-201c0-59 48-107 107-107s107 48 107 107z m694-147v-53c25-9 49-20 71-34v77c-5 0-9-1-14-1-20 0-39 4-57 11z m-404-260h-341v260c-17-7-36-11-56-11-5 0-10 1-14 1v-340c0-17 13-30 29-30h266v-38-38-40h-60c-16 0-28-13-28-28s12-28 28-28h156c5 8 10 16 17 23l27 27c-41 76-49 163-24 242z" horiz-adv-x="1080" />

<glyph glyph-name="up-open" unicode="&#xe823;" d="M0 174l352 352 148 148 148-148 352-352-148-148-352 351-352-351z" horiz-adv-x="1000" />

<glyph glyph-name="down-open-1" unicode="&#xe824;" d="M0 533q0 25 18 43t44 18 42-18l305-303 304 303q18 18 43 18t43-18q18-18 18-43t-18-43l-390-391-391 391q-18 19-18 43z" horiz-adv-x="817.4" />

<glyph glyph-name="plus" unicode="&#xe825;" d="M550 400q30 0 30-50t-30-50l-210 0 0-210q0-30-50-30t-50 30l0 210-210 0q-30 0-30 50t30 50l210 0 0 210q0 30 50 30t50-30l0-210 210 0z" horiz-adv-x="580" />

<glyph glyph-name="left-open-1" unicode="&#xe826;" d="M0 353l391 391q18 18 43 18 24 0 43-18 18-18 18-44t-18-43l-304-304 304-305q18-17 18-43t-18-43q-18-18-43-18t-43 18z" horiz-adv-x="495.1" />

<glyph glyph-name="right-open-1" unicode="&#xe827;" d="M0 0q0 25 18 43l305 304-305 304q-18 18-18 44t18 43 44 18 43-18l390-391-390-391q-19-18-43-18t-44 18q-18 18-18 44z" horiz-adv-x="495.1" />

<glyph glyph-name="up-open-1" unicode="&#xe828;" d="M0 167q0 26 18 43l391 391 390-391q17-17 17-43 0-26-17-44-18-17-44-17t-43 17l-303 305-305-305q-18-17-43-17t-43 17q-18 18-18 44z" horiz-adv-x="816.9" />

<glyph glyph-name="read" unicode="&#xe829;" d="M807 210c-95-101-199-152-307-152-108 0-211 51-307 152-52 55-87 112-104 140 17 28 52 84 104 140 96 101 199 152 307 152 108 0 212-51 307-152 52-56 88-112 104-140-17-28-52-84-104-140z m189 159c-2 3-46 90-127 176-110 118-238 180-369 180-131 0-259-62-369-180-81-87-125-173-127-176-6-12-6-26 0-38 2-3 46-90 127-176 110-118 238-180 369-180 131 0 259 62 369 180 81 87 125 173 127 177 6 11 6 25 0 37z m-496-102c-46 0-83 37-83 83 0 46 37 83 83 83 46 0 83-37 83-83 0-46-37-83-83-83z m0 250c-92 0-167-75-167-167s75-167 167-167 167 75 167 167-75 167-167 167z" horiz-adv-x="1000" />

<glyph glyph-name="arrow-left" unicode="&#xe82a;" d="M417 683c11 0 21-4 29-12s12-18 12-29c0-12-4-22-12-30l-220-220h649c12 0 21-4 30-12s12-18 12-30-4-21-12-29-18-13-30-13h-649l220-220c8-8 12-18 12-30 0-11-4-21-12-29s-18-12-29-12c-12 0-22 4-30 12l-292 291c-8 9-12 19-12 30s4 21 12 30l292 291c8 8 18 12 30 12z" horiz-adv-x="1000" />

<glyph glyph-name="arrow-right" unicode="&#xe82b;" d="M583 17c-11 0-21 4-29 12-8 8-12 18-12 29 0 12 4 22 12 30l220 220h-649c-11 0-21 4-29 13s-13 18-13 29 4 21 13 30 18 12 29 12h649l-220 220c-8 8-12 18-12 30 0 11 4 21 12 29s18 12 29 12c12 0 22-4 30-12l292-291c8-9 12-19 12-30s-4-21-12-30l-292-291c-8-8-18-12-30-12z" horiz-adv-x="1000" />

<glyph glyph-name="pdf" unicode="&#xe82c;" d="M810 231c-5-2-16-4-24-4-24 0-54 11-95 29 16 1 30 2 44 2 24 0 31 0 55-6 23-6 24-18 20-21z m-420-4c9 17 18 34 28 53 24 45 39 81 50 110 23-41 51-76 83-103 5-4 9-7 13-11-66-13-124-29-174-49z m77 428c14 0 21-33 22-65 0-31-7-53-16-69-8 24-11 62-11 87 0 0-1 47 5 47z m-260-600c7 21 37 61 81 97 3 3 10 9 16 15-46-74-77-103-97-112z m615 219c-13 14-43 20-88 21-30 0-67-2-105-8-17 10-35 21-49 34-38 35-69 84-89 137 2 5 3 10 4 14 0 0 21 121 15 161-1 6-1 7-2 12l-2 4c-6 14-17 28-35 27l-11 0c-19 0-35-10-40-25-13-47 1-118 25-210l-6-15c-18-41-39-84-58-121l-3-5c-20-39-38-72-54-100l-17-9c-1-1-30-16-37-20-58-35-96-74-103-105-2-10 0-23 10-29l16-8c7-3 15-5 23-5 41 0 89 51 155 166 76 25 162 46 238 57 58-33 129-55 174-55 8 0 15 0 21 2 8 2 16 7 20 14 9 13 10 31 8 49-1 6-5 13-10 17z m53-346c0-8-7-16-16-16h-718c-9 0-16 8-16 16v844c0 8 7 16 16 16 0 0 484 0 484 0v-219c0-17 14-31 31-31h219v-610z m-108 752c30-30 54-58 71-80h-150v150c22-17 49-41 79-70z m129-54c-21 30-52 65-85 98-33 33-68 63-97 85-51 37-75 41-89 41h-484c-43 0-78-35-78-78v-844c0-43 35-78 78-78h718c44 0 79 35 79 78v610c0 14-5 38-42 88z" horiz-adv-x="1000" />

<glyph glyph-name="store" unicode="&#xe82d;" d="M458 399c70 0 127 57 127 128h-255c0-71 57-128 128-128z m509 0c70 0 128 57 128 128h-255c0-71 57-128 127-128z m255 0c70 0 127 57 127 128l-222 238c-3 3-7 6-12 8-4 2-9 3-13 3h-150l143-249c0-71 57-128 127-128z m-510 0c71 0 128 57 128 128l-41 249h-173l-41-249c0-71 57-128 127-128z m-382 128l143 249h-150c-4 0-9-1-13-3-5-2-9-5-12-8l-222-238c0-71 57-128 127-128 70 0 127 57 127 128z m902-188c-23 0-46 5-67 13v-309h-15-865-15v309c-21-8-43-13-67-13-6 0-11 0-17 1v-404c0-19 16-35 35-35h64 865 64c20 0 35 16 35 35v404c-5-1-11-1-17-1z" horiz-adv-x="1398" />

<glyph glyph-name="location" unicode="&#xe82e;" d="M715 723c-162 159-423 159-585 0-161-159-161-416 0-575l292-287 293 287c161 159 161 416 0 575z m-293-423c-34 0-66 13-91 38-50 50-50 132 0 182 25 25 57 38 91 38s67-13 92-38c50-50 50-132 0-182-25-25-57-38-92-38z" horiz-adv-x="843" />

<glyph glyph-name="earth" unicode="&#xe82f;" d="M500 842c271 0 492-221 492-492s-221-492-492-492-492 221-492 492 221 492 492 492z m175-334c-5-4-8-11-14-12 3 1 6 12 8 15 4 4 9 7 14 9 11 5 22 6 33 8 11 3 25 3 33-7-2 2 14 15 15 16 6 3 16 2 20 8 1 2 1 14 1 14-11-2-15 9-15 18 0-1-2-3-4-5 0 9-12 2-16 3-15 4-13 14-18 25-2 6-9 8-12 14-2 4-4 12-9 13-4 0-11-14-12-13-6 3-9-1-13-4-4-3-7-1-11-3 11 4-5 10-11 9 9 2 4 12-1 16h4c-2 6-20 11-25 15-6 4-37 10-43 7-8-5 2-18 2-24 0-8-8-10-8-16 0-11 20-9 15-24-3-9-15-11-20-18-5-6 0-18 6-22 5-4-9-10-11-12-11-5-20 11-22 21-2 7-3 15-10 19-4 1-16 3-19-1-4 10-17 14-26 17-13 4-24 4-37 3 4 0-2 20-12 17 3 6 1 13 3 20 1 5 4 10 7 14 2 3 16 18 11 18 11-1 23-2 32 7 6 6 9 16 14 22 9 10 19-2 28-3 13-1 12 13 5 20 8-1 1 14-3 16-6 2-28-3-16-8-3 1-18-31-27-15-3 4-4 17-10 18-5 0-8-6-10-10 3 8-18 14-22 15 9 6 2 13-5 17-6 3-22 6-26 1-12-15 13-17 19-21 2-1 10-6 5-9-4-2-15-5-16-7-4-6 4-13-2-18-5 5-5 15-10 21 6-7-23-3-22-3-10 0-25-6-32 3-2 3-2 18 2 15-5 4-9 8-13 11-21-7-41-16-60-26 2-1 4-1 7 0 5 2 10 6 15 8 6 3 20 10 27 5 1 1 3 2 3 3 5-5 9-10 13-16-5 2-13 1-19 0-5-1-12-2-14-7 2-3 4-9 3-12-8 6-15 16-26 17-5 0-11 0-14-1-62-34-114-83-151-142 3-2 5-4 8-5 6-2 0-21 12-11 4-3 4-8 2-12 1 1 26-16 28-17 5-4 12-9 13-14 2-4-2-9-6-11-1 1-10 11-11 8-2-3 0-20 7-20-11 0-6-40-9-48 0 0 2 0 2 0-2-8 4-38 17-35-9-2 15-31 18-33 8-6 18-10 23-18 7-9 7-23 16-30-3-7 13-16 13-27-2-1-2-1-4-2 4-9 16-9 20-17 3-5 0-17 9-15 1 15-9 29-16 40-4 7-7 12-11 19-3 5-4 13-6 19 2-1 17-6 15-8-5-13 21-35 28-43 2-2 16-21 9-21 8 0 20-13 23-20 6-9 5-21 9-32 4-12 22-18 32-24 9-4 16-11 25-14 14-5 17-1 29 1 16 3 18-16 32-23 8-4 26-11 35-7-4-1 13-27 15-29 5-8 16-12 23-20 1 2 3 4 4 6-3-7 10-20 16-19 7 1 9 15 9 21-13-7-24-2-31 11-2 3-12 21-3 21 12 0 4 10 3 19-2 9-11 14-15 22-4-8-17-6-21 1 0-2-1-5-1-8-4 0-7-1-10 1 1 7 2 17 4 25 3 12 24 34-3 33-10-1-14-5-17-13-3-8-2-15-11-18-6-3-25-2-31 1-12 8-20 30-20 43-1 17 8 32 0 48 4 4 7 10 12 13 4 3 8-2 10 6-2 1-4 4-5 4 10-5 28 6 36 0 5-4 11-5 14 1 1 2-4 10-2 15 2-11 9-13 19-6 4-4 14-3 21-6 7-5 8-12 16-2 6-8 6-8 8-16 2-7 6-25 12-28 14-8 11 14 9 22 0 1 0 22-1 22-20 4-13 20-1 31 2 1 16 6 23 12 6 5 13 14 9 22 4 0 6 3 7 6-2 0-9 7-10 6 4 3 3 7 1 10 6 4 3 11 9 14 7-10 22 1 14 9 7 9 22 4 25 13 10-3 3 9 8 16 5 6 12 6 18 9 0 0 16 9 11 10 11-1 33 10 16 20 3 5-6 8-12 9 5 2 11-1 15 2 8 5 2 8-5 10-9 2-20-3-28-8z m-104-561c88 15 166 59 225 121-4 4-11 2-16 5-5 2-9 4-16 5 2 13-12 17-21 24-9 6-14 13-26 11-1-1-14-6-11-8-9 7-13 11-23 14-11 3-18 16-28 4-5-5-3-12-5-17-8 7 8 15 1 23-8 9-21-6-27-10-4-3-9-5-11-8-3-5-5-11-7-15-2 5-13 4-14 8 3-16 3-32 6-47 2-9 0-24-8-31-7-7-17-15-18-25-2-8 0-15 7-17 1-10-10-17-9-27 0-1 0-7 1-10z" horiz-adv-x="1000" />

<glyph glyph-name="voice" unicode="&#xe830;" d="M254 123l272-266c8-8 18-12 30-12 24 0 43 19 43 42l0 899c0 24-19 43-43 43-12 0-23-5-30-13l-272-265h-168c-48 0-86-39-86-86v-257c0-47 38-85 86-85h168l0 0z m586 476c-21-20-21-53 0-74 51-51 82-121 82-199 0-78-32-148-83-199-20-21-20-54 0-74 21-21 54-21 74 0 70 70 114 166 114 273 0 107-43 203-113 273l0 0c-21 21-54 21-74 0l0 0z m-45-428c40 40 64 94 64 155 0 61-24 115-64 155-20 21-53 21-74 0-20-20-20-53 0-74 21-21 34-49 34-81 0-32-13-60-34-81-20-21-20-54 0-74 21-20 54-21 74 0z" horiz-adv-x="1027" />

<glyph glyph-name="download" unicode="&#xe831;" d="M938 413c-35 0-63-28-63-63v-375h-750v375c0 35-28 63-62 63s-63-28-63-63v-438c0-34 28-62 63-62h875c34 0 62 28 62 62v438c0 35-28 63-62 63z m-375 0v382c0 30-28 55-63 55-34 0-62-25-62-55v-382h-188l250-250 250 250h-187z" horiz-adv-x="1000" />

<glyph glyph-name="service" unicode="&#xe832;" d="M128 80c57 0 57 86 0 86s-56-86 0-86z m985 39c-53 69-104 139-164 202l-84-94c-74-84-205-81-277 4-51 62-51 150 2 211l118 137c-42 22-92 14-136 14-40 0-78-16-106-44l-106-105h-103v-364c29 0 56 4 79-19l199-195c41-39 93-74 152-74 30 0 62 10 83 31 50-17 108 11 124 62 32-2 61 8 85 30 15 14 35 42 33 64 6-6 21-7 29-7 79 0 121 84 72 147z m106-39h64v342h-62l-105 121c-28 32-70 50-113 50h-111c-38 0-74-16-98-44l-140-163c-24-29-24-71 0-100 38-46 108-46 148-2l129 146c30 34 86 2 72-42 26-29 53-58 78-87 33-42 65-85 98-127 21-27 36-59 40-94z m193 0c56 0 56 86 0 86s-56-86 0-86z m128 385v-428c0-23-19-43-43-43h-290c-24-58-77-97-138-105-29-42-73-74-122-85-37-47-97-75-156-71-110-62-235-8-317 73l-192 188h-239c-24 0-43 20-43 43v449c0 24 19 43 43 43h281c78 78 131 150 248 150h78c43 0 85-13 121-38 35 25 77 38 121 38h111c127 0 180-83 257-171h237c24 0 43-20 43-43z" horiz-adv-x="1540" />

<glyph glyph-name="time" unicode="&#xe833;" d="M538 805c67 0 131-13 192-39 60-26 113-61 157-105 44-44 79-96 105-157 26-61 39-125 39-192 0-67-13-131-39-191-26-61-61-114-105-158-44-44-97-79-157-105-61-26-125-39-192-39-67 0-131 13-192 39-61 26-113 61-157 105-44 44-79 97-105 158-26 60-39 124-39 191 0 67 13 131 39 192 26 61 61 113 105 157 44 44 96 79 157 105 61 26 125 39 192 39z m0-89c-55 0-107-11-157-32s-93-50-128-86c-36-36-65-79-86-129-22-50-32-102-32-157s10-107 32-156c21-50 50-93 86-129 35-36 78-65 128-86s102-32 157-32 107 10 157 32 92 50 128 86c36 36 65 79 86 129 22 49 32 102 32 156s-10 107-32 157c-21 50-50 93-86 129-36 36-79 64-128 86s-103 32-157 32z m0-90c12 0 23-4 32-13s13-19 13-32v-250l121-121c9-9 13-20 13-32s-4-23-13-32c-8-9-19-13-32-13s-23 4-32 13l-134 134c-9 9-13 20-13 32v269c0 13 4 23 13 32s19 13 32 13z" horiz-adv-x="999" />

<glyph glyph-name="contact" unicode="&#xe834;" d="M979 837c11-8 17-21 15-35l-141-844c-2-10-8-19-17-24-5-3-11-5-18-5-4 0-8 1-13 3l-289 118-164-179c-7-8-16-12-26-12-4 0-9 0-12 2-14 6-23 19-23 33v249l-259 106c-13 4-21 16-22 30-1 13 6 26 17 32l915 528c11 7 26 6 37-2z m-188-823l121 727-787-455 184-75 474 351-262-438 270-110z" horiz-adv-x="1000" />

<glyph glyph-name="email" unicode="&#xe835;" d="M218 686h874c45 0 84-16 116-48s48-70 48-116v-655c0-45-16-84-48-116s-71-48-116-48h-874c-45 0-83 16-115 48s-48 71-48 116v655c0 46 16 84 48 116s70 48 115 48z m929-819v597l-458-367c-9-7-21-11-34-11-13 0-24 4-34 11l-457 367v-597c0-15 5-28 16-39s23-16 38-16h874c15 0 28 6 39 16s16 24 16 39z m-55 710h-874c-5 0-11-1-17-3l454-364 455 364c-6 2-12 3-18 3z" horiz-adv-x="1218" />

<glyph glyph-name="phone2" unicode="&#xe836;" d="M728-145c-59 0-110 19-159 38-8 3-15 6-23 9-45 16-84 34-120 56-113 71-247 205-318 318-22 36-40 75-56 120-3 8-6 15-9 23-18 49-38 100-38 159 0 47 13 93 39 140l0 1c17 31 43 78 90 98 28 13 79 24 108 24 6 0 18 0 31-5 28-11 44-39 58-69 1-1 1-2 2-3 6-11 13-23 19-35 13-23 26-47 40-70 1-2 4-6 6-9 13-18 30-42 30-72 0-44-38-75-78-107-10-8-23-19-32-27 3-5 6-10 8-14 2-3 4-6 6-9l0-1c59-106 132-179 238-238l1 0c3-2 6-4 9-6 4-2 9-5 14-8 8 9 19 22 27 32 32 40 63 78 107 78 30 0 54-17 72-30 3-2 7-5 10-6 22-14 46-27 69-40 12-6 24-13 35-19 1-1 2-1 3-2 30-14 58-30 69-58 5-13 5-25 5-31 0-29-11-80-24-108-20-47-67-73-98-90l-1-1c-47-25-93-38-140-38z m-596 815c-18-32-26-62-26-92 0-41 15-81 31-123 3-8 6-17 9-25 14-38 30-71 48-101 62-100 185-223 285-285 30-18 63-34 101-48 8-3 17-6 25-9 42-16 82-31 123-31 30 0 60 8 92 26 18 10 48 26 55 42l0 1c6 12 13 40 15 57-6 4-13 7-17 9-2 1-3 2-4 2l-3 1c-11 7-23 14-35 20-24 13-49 27-73 41l-1 1c-5 3-10 7-15 10-3 2-7 5-11 8-10-10-23-27-32-38-31-37-59-73-100-73-28 0-53 16-72 27-2 2-4 3-7 5-122 68-207 153-275 275-2 3-3 5-5 7-11 19-27 44-27 72 0 41 36 69 73 100 12 9 28 22 38 32-3 4-6 8-8 10-3 5-7 11-10 16l-1 1c-14 24-28 49-41 73-6 12-13 23-20 35l-1 2c0 2-1 3-2 5-2 4-5 11-9 17-17-2-45-9-57-15l-1 0c-15-7-32-37-42-55z" horiz-adv-x="1000" />

<glyph glyph-name="doc" unicode="&#xe837;" d="M819 638c21-21 38-62 38-92v-642c0-30-24-54-53-54h-750c-30 0-54 24-54 54v892c0 30 24 54 54 54h500c29 0 70-17 91-38l174-174z m-248 136v-210h210c-3 10-8 19-12 23l-175 175c-4 4-13 9-23 12z m215-853v572h-232c-30 0-54 24-54 53v233h-429v-858h715z m-572 483c0 10 8 17 18 17h393c10 0 18-7 18-17v-36c0-10-8-18-18-18h-393c-10 0-18 8-18 18v36z m411-125c10 0 18-8 18-18v-36c0-10-8-18-18-18h-393c-10 0-18 8-18 18v36c0 10 8 18 18 18h393z m0-143c10 0 18-8 18-18v-36c0-10-8-18-18-18h-393c-10 0-18 8-18 18v36c0 10 8 18 18 18h393z" horiz-adv-x="857" />

<glyph glyph-name="reload" unicode="&#xe838;" d="M1000 683v-291c0-23-19-42-42-42h-291c-17 0-32 10-39 26-6 15-3 33 9 45l90 90c-61 56-142 89-227 89-184 0-333-150-333-333s149-334 333-334c104 0 199 47 263 130 3 4 9 7 15 8 6 0 12-2 16-6l90-90c7-7 7-20 1-28-95-115-236-180-385-180-275 0-500 224-500 500s225 500 500 500c128 0 253-52 344-138l85 84c12 12 30 15 46 9 15-7 25-22 25-39z" horiz-adv-x="1000" />

<glyph glyph-name="link" unicode="&#xe839;" d="M430 229c-13 0-26 5-36 15-93 93-93 244 0 337l188 188c45 45 104 69 168 69s124-24 169-69c92-93 92-245 0-337l-86-86c-20-20-52-20-72 0-20 20-20 52 0 72l86 85c53 54 53 140 0 194-26 26-60 40-97 40s-71-14-97-40l-187-188c-53-53-53-140 0-193 20-20 20-52 0-72-10-10-23-15-36-15l0 0z m-180-367c-64 0-123 24-168 69-93 93-93 245 0 338l85 85c20 20 52 20 72 0 20-20 20-52 0-72l-86-85c-53-54-53-140 0-194 26-26 61-40 97-40s71 14 97 40l187 188c54 53 54 140 0 193-20 20-20 52 0 72 20 20 52 20 72 0 93-93 93-244 0-337l-187-188c-45-45-105-69-169-69l0 0z" horiz-adv-x="1000" />

<glyph glyph-name="download2" unicode="&#xe83a;" d="M1024 172l-38-203h-852l-39 203h-95v-322h1119v322h-95l0 0z m-24 360h-281v117h-319v-117h-278l436-456 442 456z m-281 318h-319v-43h319v43z m0-79h-319v-82h319v82z" horiz-adv-x="1119" />

<glyph glyph-name="gplus" unicode="&#xf05a;" d="M0 57q0-39 17-68 30-55 105-82 63-26 136-26t133 20 100 52 60 74 22 87q0 63-34 108-26 36-69 68-15 11-32 28-34 28-34 55 0 32 45 73 15 13 37 36 19 21 32 54t12 72q0 51-22 96t-62 70h76l76 44h-246q-53 0-106-10-78-18-131-81t-53-141q0-82 59-138t145-55q8 0 39 3-2-6-9-24-4-11-4-25 0-38 36-84-37 0-84-7-110-18-169-60-34-25-55-64t-20-75z m104 26q0 34 16 61 27 47 94 68 58 18 120 18 9 0 28-2 1 0 16-11t20-13q14-9 36-27 1-2 9-9t13-12 8-10q2-2 3-5t4-6 5-7q6-9 10-19 7-24 7-43 0-35-15-61t-42-42q-50-30-120-30-76 0-139 35-33 17-53 47t-20 68z m61 563q0 57 30 94t81 38q36 0 66-22t48-60q36-74 36-145 0-59-26-91t-77-33q-28 0-55 15-45 25-76 90-27 57-27 114z m412-43h144v-145h72v145h144v72h-144v143h-72v-143h-144v-72z" horiz-adv-x="937.5" />

<glyph glyph-name="youtube-play" unicode="&#xf16a;" d="M397 221l270 139-270 141v-280z m103 481q94 0 181-3t128-5l41-2q0 0 9-1t13-2 13-2 16-5 16-7 17-11 16-15q4-3 9-10t16-33 15-56q4-36 7-76t3-64v-98q1-81-10-162-4-30-14-55t-18-35l-8-9q-7-8-16-15t-17-10-16-7-16-5-13-2-13-2-9-1q-140-11-350-11-115 2-201 4t-111 4l-28 3-20 2q-20 3-30 5t-29 12-31 23q-4 3-9 10t-16 33-15 56q-4 36-7 76t-3 64v98q-1 81 10 162 4 31 14 55t18 35l8 9q8 9 16 15t17 11 16 7 16 5 13 2 13 2 9 1q140 10 350 10z" horiz-adv-x="1000" />

<glyph glyph-name="instagram" unicode="&#xf16d;" d="M571 350q0 59-41 101t-101 42-101-42-42-101 42-101 101-42 101 42 41 101z m77 0q0-91-64-156t-155-64-156 64-64 156 64 156 156 64 155-64 64-156z m61 229q0-21-15-36t-37-15-36 15-15 36 15 36 36 15 37-15 15-36z m-280 123q-4 0-43 0t-59 0-54-2-57-5-40-11q-28-11-49-32t-33-49q-6-16-10-40t-6-58-1-53 0-59 0-43 0-43 0-59 1-53 6-58 10-40q12-28 33-49t49-32q16-6 40-11t57-5 54-2 59 0 43 0 42 0 59 0 54 2 58 5 39 11q28 11 50 32t32 49q6 16 10 40t6 58 1 53 0 59 0 43 0 43 0 59-1 53-6 58-10 40q-11 28-32 49t-50 32q-16 6-39 11t-58 5-54 2-59 0-42 0z m428-352q0-128-3-177-5-116-69-180t-179-69q-50-3-177-3t-177 3q-116 6-180 69t-69 180q-3 49-3 177t3 177q5 116 69 180t180 69q49 3 177 3t177-3q116-6 179-69t69-180q3-49 3-177z" horiz-adv-x="857.1" />

<glyph glyph-name="apple" unicode="&#xf179;" d="M777 172q-21-70-68-139-72-110-144-110-27 0-78 18-48 18-84 18-34 0-79-19-45-19-74-19-85 0-168 145-82 146-82 281 0 127 63 208 63 81 159 81 40 0 98-17 58-17 77-17 25 0 80 19 57 19 97 19 66 0 119-36 29-20 58-56-44-37-64-66-36-52-36-115 0-69 38-125t88-70z m-209 655q0-34-17-76-16-42-52-77-30-30-60-40-20-7-58-10 2 83 44 143 41 60 139 83 1-2 2-6t1-6q0-2 0-6t1-5z" horiz-adv-x="785.7" />

<glyph glyph-name="weibo" unicode="&#xf18a;" d="M377 134q11 19 6 38t-25 28q-19 8-41 0t-33-25q-13-19-8-38t24-29 42-1 35 27z m52 67q5 7 2 15t-10 10q-7 3-16 0t-12-10q-9-18 8-26 8-2 16 1t12 10z m97-60q-25-57-88-83t-125-7q-60 19-82 71t3 104q27 52 85 78t117 10q62-16 89-66t1-107z m174 90q-5 53-49 94t-117 61-153 12q-124-13-206-79t-74-148q5-53 50-94t116-61 153-12q125 13 206 79t74 148z m172-3q0-38-20-77t-61-77-94-65-126-47-151-17-154 19-134 52-96 84-36 111q0 64 39 137t110 144q94 94 191 131t137-3q36-36 11-117-2-8 0-11t5-4 8 0 8 2l3 1q78 33 138 33t85-34q25-35 0-99-1-7-3-11t3-7 7-5 9-3q32-10 58-26t44-46 19-65z m-41 349q23-27 30-61t-3-66q-5-12-17-18t-25-3q-12 5-19 17t-2 25q11 35-13 62t-60 19q-13-3-25 5t-14 20q-3 14 5 25t20 14q34 7 67-3t56-36z m101 91q49-54 63-125t-8-134q-5-15-19-23t-29-2-22 19-3 29q16 46 6 96t-45 88q-35 39-83 54t-96 4q-16-3-29 6t-17 24 5 29 25 16q68 15 136-6t116-75z" horiz-adv-x="1000" />

<glyph glyph-name="pinterest" unicode="&#xf231;" d="M0 517q0 60 21 113t58 93 85 69 103 44 113 14q88 0 164-37t123-108 47-160q0-54-10-105t-34-99-56-83-80-58-106-21q-38 0-75 18t-54 49q-5-22-15-63t-14-53-11-40-15-39-17-35-26-44-35-48l-7-3-5 6q-9 88-9 105 0 51 12 115t37 161 29 113q-18 36-18 94 0 47 29 87t74 41q34 0 53-23t19-57q0-37-24-106t-25-105q0-35 25-58t61-23q31 0 57 14t44 38 31 53 21 61 11 62 4 56q0 96-61 150t-160 54q-111 0-186-72t-75-183q0-25 7-48t15-36 15-26 7-17q0-15-8-40t-21-25q-1 0-9 1-29 9-51 31t-34 53-18 60-6 60z" horiz-adv-x="714.3" />
</font>
</defs>
</svg>
